<svg xmlns="http://www.w3.org/2000/svg">
<defs>
<font id="HelveticaLTStd-Light" horiz-adv-x="556" >
  <font-face 
    font-family="Helvetica LT Std Light"
    font-weight="300"
    font-stretch="normal"
    units-per-em="1000"
    panose-1="2 11 3 3 2 2 2 2 2 4"
    ascent="718"
    descent="-282"
    x-height="518"
    cap-height="720"
    bbox="-164 -250 1000 979"
    underline-thickness="50"
    underline-position="-75"
    stemh="54"
    stemv="64"
    unicode-range="U+000D-FB02"
  />
<missing-glyph horiz-adv-x="485" 
d="M0 680h485v-680h-485v680zM47 47h391v585h-391v-585zM363 453c0 -45 -17 -74 -61 -114c-41 -38 -45 -45 -45 -95v-22h-46v23c0 58 13 80 46 113c36 35 57 56 57 91c0 43 -32 80 -72 80c-44 0 -72 -34 -77 -90l-48 8c9 86 55 130 128 130c69 0 118 -49 118 -124zM210 111
v63h53v-63h-53z" />
    <glyph glyph-name="fi" unicode="fi" horiz-adv-x="500" 
d="M203 734c17 0 32 -1 49 -4v-55c-13 4 -25 5 -36 5c-43 0 -64 -23 -64 -88v-74h98v-50h-98v-468h-60v468h-79v50h79v86c0 83 34 130 111 130zM369 720h66v-89h-66v89zM372 0v518h60v-518h-60z" />
    <glyph glyph-name="fl" unicode="fl" horiz-adv-x="500" 
d="M203 734c17 0 32 -1 49 -4v-55c-13 4 -25 5 -36 5c-43 0 -64 -23 -64 -88v-74h98v-50h-98v-468h-60v468h-79v50h79v86c0 83 34 130 111 130zM372 0v720h60v-720h-60z" />
    <glyph glyph-name=".notdef" horiz-adv-x="485" 
d="M0 680h485v-680h-485v680zM47 47h391v585h-391v-585zM363 453c0 -45 -17 -74 -61 -114c-41 -38 -45 -45 -45 -95v-22h-46v23c0 58 13 80 46 113c36 35 57 56 57 91c0 43 -32 80 -72 80c-44 0 -72 -34 -77 -90l-48 8c9 86 55 130 128 130c69 0 118 -49 118 -124zM210 111
v63h53v-63h-53z" />
    <glyph glyph-name="NULL" horiz-adv-x="0" 
 />
    <glyph glyph-name="NULL" horiz-adv-x="0" 
 />
    <glyph glyph-name="CR" unicode="&#xd;" horiz-adv-x="278" 
 />
    <glyph glyph-name="space" unicode=" " horiz-adv-x="278" 
 />
    <glyph glyph-name="exclam" unicode="!" horiz-adv-x="333" 
d="M130 720h73v-224l-14 -315h-45l-14 315v224zM130 88h73v-88h-73v88z" />
    <glyph glyph-name="quotedbl" unicode="&#x22;" horiz-adv-x="278" 
d="M57 494v226h52v-226h-52zM168 494v226h52v-226h-52z" />
    <glyph glyph-name="numbersign" unicode="#" 
d="M175 486l32 212h60l-32 -212h136l31 212h59l-31 -212h100v-59h-108l-20 -140h102v-59h-111l-32 -228h-59l31 228h-137l-34 -228h-59l34 228h-110v59h119l21 140h-112v59h120zM363 427h-136l-22 -140h138z" />
    <glyph glyph-name="dollar" unicode="$" 
d="M256 705v61h46v-61c116 0 191 -67 195 -176h-65c-1 72 -55 121 -130 122v-266l21 -5c164 -39 195 -108 195 -211c0 -106 -92 -182 -216 -188v-76h-46v76c-139 8 -214 91 -219 222h65c2 -94 62 -162 153 -168v297l-12 3c-141 35 -187 92 -187 188c0 103 79 182 200 182z
M255 394v257c-72 0 -135 -50 -135 -125c0 -62 24 -103 135 -132zM302 322v-287c92 2 152 67 152 146c0 71 -31 113 -135 137z" />
    <glyph glyph-name="percent" unicode="%" horiz-adv-x="889" 
d="M616 705h52l-397 -719h-52zM232 698c90 0 166 -74 166 -166c0 -89 -74 -165 -166 -165c-91 0 -165 76 -165 165c0 91 77 166 165 166zM124 532c0 -57 47 -108 108 -108c58 0 109 51 109 108c0 60 -53 109 -110 109c-58 0 -107 -50 -107 -109zM656 331
c90 0 166 -74 166 -166c0 -89 -74 -165 -166 -165c-91 0 -165 76 -165 165c0 91 77 166 165 166zM548 165c0 -57 47 -108 108 -108c58 0 109 51 109 108c0 60 -53 109 -110 109c-58 0 -107 -50 -107 -109z" />
    <glyph glyph-name="ampersand" unicode="&#x26;" horiz-adv-x="667" 
d="M298 720c88 0 151 -62 151 -139c0 -63 -22 -115 -142 -181l181 -214c24 41 30 88 30 140h59c-3 -84 -22 -146 -50 -188l117 -138h-81l-70 85c-59 -72 -126 -104 -226 -104c-129 0 -226 88 -226 214c0 93 60 170 172 223c-54 60 -77 112 -77 161c0 85 67 141 162 141z
M197 580c0 -31 24 -74 75 -135c91 50 114 93 114 131c0 49 -38 90 -94 90c-51 0 -95 -35 -95 -86zM109 190c0 -91 66 -155 162 -155c68 0 130 32 183 96l-205 244c-89 -44 -140 -113 -140 -185z" />
    <glyph glyph-name="quotesingle" unicode="'" horiz-adv-x="222" 
d="M85 494v226h52v-226h-52z" />
    <glyph glyph-name="parenleft" unicode="(" horiz-adv-x="333" 
d="M226 739h51c-101 -147 -153 -308 -153 -468c0 -153 53 -314 153 -462h-51c-131 182 -171 303 -171 467c0 167 51 304 171 463z" />
    <glyph glyph-name="parenright" unicode=")" horiz-adv-x="333" 
d="M107 -191h-51c101 147 153 308 153 468c0 153 -53 314 -153 462h51c131 -182 171 -303 171 -467c0 -167 -51 -304 -171 -463z" />
    <glyph glyph-name="asterisk" unicode="*" horiz-adv-x="389" 
d="M173 603v117h42v-117l114 42l15 -44l-114 -37l75 -106l-39 -24l-74 108l-78 -106l-35 27l77 101l-112 40l18 42z" />
    <glyph glyph-name="plus" unicode="+" horiz-adv-x="660" 
d="M300 280v220h60v-220h220v-60h-220v-220h-60v220h-220v60h220z" />
    <glyph glyph-name="comma" unicode="," horiz-adv-x="278" 
d="M102 88h73v-121c0 -48 -25 -89 -73 -104v37c27 17 34 41 34 62v38h-34v88z" />
    <glyph glyph-name="hyphen" unicode="-" horiz-adv-x="333" 
d="M40 291h253v-62h-253v62z" />
    <glyph glyph-name="period" unicode="." horiz-adv-x="278" 
d="M102 88h73v-88h-73v88z" />
    <glyph glyph-name="slash" unicode="/" horiz-adv-x="278" 
d="M-3 -90l235 829h56l-235 -829h-56z" />
    <glyph glyph-name="zero" unicode="0" 
d="M516 340c0 -245 -78 -354 -238 -354c-161 0 -239 109 -239 361c0 251 79 358 239 358c159 0 238 -112 238 -365zM278 40c116 0 174 92 174 307c0 211 -57 304 -177 304c-112 0 -172 -103 -172 -312s56 -299 175 -299z" />
    <glyph glyph-name="one" unicode="1" 
d="M315 705h51v-705h-64v524h-182v42c136 7 176 37 195 139z" />
    <glyph glyph-name="two" unicode="2" 
d="M515 510c0 -131 -92 -191 -232 -267c-94 -51 -163 -107 -167 -189h393v-54h-461v19c0 149 127 232 279 320c76 44 118 92 118 167c0 87 -63 145 -155 145c-86 0 -153 -75 -153 -169v-8h-68c2 143 94 231 229 231c133 0 217 -80 217 -195z" />
    <glyph glyph-name="three" unicode="3" 
d="M487 531c0 -73 -32 -128 -100 -157c80 -25 125 -85 125 -174c0 -126 -97 -214 -229 -214c-173 0 -236 67 -249 218h64c0 -103 66 -164 175 -164c98 0 175 72 175 153c0 88 -57 148 -190 148c-11 0 -25 -1 -37 -1v52h15c124 0 187 42 187 135c0 77 -57 124 -150 124
c-89 0 -150 -62 -151 -151h-64c0 71 39 205 217 205c138 0 212 -66 212 -174z" />
    <glyph glyph-name="four" unicode="4" 
d="M36 229l328 469h58v-470h98v-54h-98v-174h-64v174h-322v55zM358 228v374l-259 -374h259z" />
    <glyph glyph-name="five" unicode="5" 
d="M119 698h349v-54h-296l-44 -237c56 37 92 46 155 46c130 0 223 -90 223 -233c0 -139 -98 -234 -224 -234c-153 0 -238 70 -247 197h64c13 -92 78 -143 174 -143c102 0 169 77 169 180c0 106 -70 179 -175 179c-63 0 -114 -22 -153 -73l-53 7z" />
    <glyph glyph-name="six" unicode="6" 
d="M503 532h-66c-15 79 -66 119 -134 119c-104 0 -184 -57 -198 -319c55 80 109 110 185 110c141 0 224 -86 224 -227c0 -144 -85 -229 -226 -229c-164 0 -247 118 -247 337c0 234 88 382 256 382c113 0 193 -62 206 -173zM289 40c103 0 161 72 161 177
c0 108 -51 171 -162 171c-93 0 -159 -74 -159 -175c0 -98 59 -173 160 -173z" />
    <glyph glyph-name="seven" unicode="7" 
d="M59 698h449v-60c-168 -188 -274 -452 -286 -638h-70c13 189 132 452 279 634h-372v64z" />
    <glyph glyph-name="eight" unicode="8" 
d="M483 533c0 -73 -29 -125 -96 -158c79 -28 125 -95 125 -175c0 -141 -105 -214 -234 -214c-144 0 -234 89 -234 208c0 84 42 153 123 185c-69 41 -98 75 -98 154c0 96 84 172 201 172c128 0 213 -67 213 -172zM283 399c88 0 136 50 136 139c0 71 -45 113 -144 113
c-85 0 -142 -50 -142 -127c0 -79 62 -125 150 -125zM283 40c93 0 165 64 165 158c0 92 -66 147 -170 147c-105 0 -170 -55 -170 -151c0 -91 73 -154 175 -154z" />
    <glyph glyph-name="nine" unicode="9" 
d="M515 349c0 -224 -98 -363 -257 -363c-119 0 -194 61 -205 169h65c15 -75 58 -115 137 -115c121 0 187 94 196 313l-2 2c-43 -71 -106 -110 -190 -110c-133 0 -218 91 -218 227c0 145 86 233 227 233c164 0 247 -119 247 -356zM268 299c94 0 158 74 158 175
c0 111 -67 177 -159 177c-95 0 -162 -61 -162 -181c0 -108 62 -171 163 -171z" />
    <glyph glyph-name="colon" unicode=":" horiz-adv-x="278" 
d="M102 492h73v-88h-73v88zM102 88h73v-88h-73v88z" />
    <glyph glyph-name="semicolon" unicode=";" horiz-adv-x="278" 
d="M102 492h73v-88h-73v88zM102 88h73v-121c0 -48 -25 -88 -73 -104v37c27 17 34 40 34 61v39h-34v88z" />
    <glyph glyph-name="less" unicode="&#x3c;" horiz-adv-x="660" 
d="M580 505v-64l-421 -186l421 -197v-64l-500 235v53z" />
    <glyph glyph-name="equal" unicode="=" horiz-adv-x="660" 
d="M80 378h500v-60h-500v60zM80 184h500v-60h-500v60z" />
    <glyph glyph-name="greater" unicode="&#x3e;" horiz-adv-x="660" 
d="M80 505l500 -223v-53l-500 -235v64l421 197l-421 186v64z" />
    <glyph glyph-name="question" unicode="?" horiz-adv-x="500" 
d="M472 551c0 -59 -32 -104 -85 -152c-112 -101 -113 -120 -113 -213v-4h-58v13c0 35 2 66 8 89c10 39 26 69 96 132c53 48 88 91 88 140c0 75 -62 129 -155 129c-91 0 -154 -64 -154 -164v-5h-61c-1 6 -1 13 -1 20c2 122 95 203 217 203c133 0 218 -73 218 -188zM210 88h73
v-88h-73v88z" />
    <glyph glyph-name="at" unicode="@" horiz-adv-x="800" 
d="M760 423c0 -71 -25 -145 -76 -205c-50 -59 -106 -87 -157 -87c-39 0 -75 19 -86 52c-31 -31 -76 -50 -119 -50c-81 0 -139 63 -139 151c0 65 23 140 72 205s111 97 176 97c52 0 96 -29 112 -66l15 46h67l-101 -302c-12 -35 -12 -44 -12 -52c0 -18 7 -29 29 -29
c81 0 159 135 159 243c0 157 -125 263 -283 263c-181 0 -317 -149 -317 -333c0 -186 145 -325 319 -325c101 0 204 48 265 136h59c-62 -115 -193 -186 -324 -186c-208 0 -379 164 -379 382c0 201 164 376 375 376c193 0 345 -133 345 -316zM337 196c37 0 77 28 112 88
s53 121 53 170c0 41 -30 73 -70 73c-98 0 -173 -140 -173 -238c0 -52 30 -93 78 -93z" />
    <glyph glyph-name="A" unicode="A" horiz-adv-x="667" 
d="M298 720h77l276 -720h-70l-83 226h-328l-85 -226h-70zM334 662l-141 -378h282z" />
    <glyph glyph-name="B" unicode="B" horiz-adv-x="667" 
d="M81 720h265c145 0 231 -60 231 -181c0 -84 -40 -140 -115 -155v-2c95 -15 148 -80 148 -179c0 -136 -83 -203 -230 -203h-299v720zM149 402h177c117 0 183 37 183 137c0 91 -57 123 -196 123h-164v-260zM149 58h181c168 0 212 38 212 145c0 100 -55 141 -206 141h-187
v-286z" />
    <glyph glyph-name="C" unicode="C" horiz-adv-x="722" 
d="M383 739c152 0 256 -81 279 -228h-70c-25 113 -94 170 -226 170c-158 0 -250 -128 -250 -319c0 -203 88 -323 255 -323c113 0 196 70 228 198h71c-38 -168 -145 -256 -312 -256c-200 0 -310 146 -310 379c0 247 119 379 335 379z" />
    <glyph glyph-name="D" unicode="D" horiz-adv-x="722" 
d="M81 720h266c117 0 199 -33 248 -100s74 -153 74 -259c0 -197 -79 -361 -326 -361h-262v720zM149 58h177c215 0 275 130 275 303c0 181 -67 301 -261 301h-191v-604z" />
    <glyph glyph-name="E" unicode="E" horiz-adv-x="611" 
d="M81 720h479v-58h-411v-260h371v-58h-371v-286h421v-58h-489v720z" />
    <glyph glyph-name="F" unicode="F" 
d="M74 720h464v-58h-396v-260h360v-58h-360v-344h-68v720z" />
    <glyph glyph-name="G" unicode="G" horiz-adv-x="778" 
d="M386 739c161 0 272 -83 301 -228h-70c-24 106 -118 170 -226 170c-175 0 -270 -120 -270 -343c0 -170 105 -299 261 -299c136 0 248 88 248 275h-243v58h308v-372h-58v123c-57 -99 -141 -142 -268 -142c-194 0 -316 142 -316 382c0 233 125 376 333 376z" />
    <glyph glyph-name="H" unicode="H" horiz-adv-x="722" 
d="M80 720h68v-309h426v309h68v-720h-68v353h-426v-353h-68v720z" />
    <glyph glyph-name="I" unicode="I" horiz-adv-x="278" 
d="M105 720h68v-720h-68v720z" />
    <glyph glyph-name="J" unicode="J" horiz-adv-x="500" 
d="M347 720h68v-528c0 -129 -62 -211 -203 -211c-129 0 -190 73 -190 242v5h68v-27c0 -116 45 -158 130 -158c88 0 127 51 127 152v525z" />
    <glyph glyph-name="K" unicode="K" horiz-adv-x="667" 
d="M85 720h68v-373l369 373h77l-284 -287l334 -433h-83l-300 391l-113 -113v-278h-68v720z" />
    <glyph glyph-name="L" unicode="L" 
d="M81 720h68v-662h386v-58h-454v720z" />
    <glyph glyph-name="M" unicode="M" horiz-adv-x="833" 
d="M78 720h104l236 -635h2l232 635h103v-720h-68v642h-2l-236 -642h-64l-237 642h-2v-642h-68v720z" />
    <glyph glyph-name="N" unicode="N" horiz-adv-x="722" 
d="M79 720h77l416 -629h2v629h68v-720h-79l-414 628h-2v-628h-68v720z" />
    <glyph glyph-name="O" unicode="O" horiz-adv-x="778" 
d="M384 739c213 0 340 -154 340 -380c0 -223 -128 -378 -336 -378c-206 0 -335 150 -335 380c0 223 131 378 331 378zM121 359c0 -195 100 -320 268 -320c172 0 267 131 267 320c0 198 -102 322 -270 322c-165 0 -265 -133 -265 -322z" />
    <glyph glyph-name="P" unicode="P" horiz-adv-x="611" 
d="M78 720h268c149 0 230 -64 230 -201c0 -133 -102 -201 -271 -201h-159v-318h-68v720zM146 376h162c145 0 200 43 200 147c0 93 -62 139 -181 139h-181v-286z" />
    <glyph glyph-name="Q" unicode="Q" horiz-adv-x="778" 
d="M380 739c208 0 339 -143 339 -380c0 -117 -35 -219 -108 -291l96 -74l-38 -46l-106 82c-49 -32 -108 -49 -180 -49c-207 0 -335 154 -335 378c0 219 124 380 332 380zM116 359c0 -191 96 -320 268 -320c51 0 91 12 126 32l-82 63l36 47l97 -74c57 55 90 144 90 252
c0 201 -104 322 -270 322c-165 0 -265 -133 -265 -322z" />
    <glyph glyph-name="R" unicode="R" horiz-adv-x="667" 
d="M80 720h288c157 0 239 -62 239 -189c0 -93 -37 -141 -117 -176c59 -21 91 -67 92 -194c1 -89 10 -141 30 -154v-7h-75c-16 27 -22 89 -26 185c-5 118 -49 142 -148 142h-215v-327h-68v720zM148 385h215c108 0 176 50 176 143c0 89 -60 134 -171 134h-220v-277z" />
    <glyph glyph-name="S" unicode="S" horiz-adv-x="611" 
d="M546 524h-65c0 98 -70 157 -177 157c-109 0 -178 -57 -178 -138c0 -114 125 -126 258 -158c168 -41 183 -129 183 -194c0 -131 -96 -210 -263 -210c-161 0 -261 87 -261 234h66c11 -117 82 -176 207 -176c118 0 183 60 183 149c0 76 -45 116 -172 145
c-143 33 -267 61 -267 212c0 112 97 194 244 194c151 0 242 -87 242 -215z" />
    <glyph glyph-name="T" unicode="T" 
d="M16 720h524v-58h-228v-662h-68v662h-228v58z" />
    <glyph glyph-name="U" unicode="U" horiz-adv-x="722" 
d="M82 720h68v-435c0 -168 62 -246 211 -246s211 77 211 246v435h68v-454c0 -177 -91 -285 -279 -285c-184 0 -279 103 -279 286v453z" />
    <glyph glyph-name="V" unicode="V" horiz-adv-x="611" 
d="M18 720h71l217 -640l216 640h71l-250 -720h-75z" />
    <glyph glyph-name="W" unicode="W" horiz-adv-x="889" 
d="M14 720h68l155 -624h2l167 624h76l164 -624h2l157 624h70l-189 -720h-75l-167 636h-2l-167 -636h-75z" />
    <glyph glyph-name="X" unicode="X" horiz-adv-x="611" 
d="M28 720h79l197 -303l198 303h79l-236 -350l247 -370h-78l-210 318l-209 -318h-77l248 370z" />
    <glyph glyph-name="Y" unicode="Y" horiz-adv-x="611" 
d="M12 720h78l212 -347l217 347h79l-261 -406v-314h-68v309z" />
    <glyph glyph-name="Z" unicode="Z" horiz-adv-x="611" 
d="M70 720h506v-57l-461 -605h464v-58h-548v57l461 605h-422v58z" />
    <glyph glyph-name="bracketleft" unicode="[" horiz-adv-x="333" 
d="M91 739h191v-50h-127v-830h125v-50h-189v930z" />
    <glyph glyph-name="backslash" unicode="\" horiz-adv-x="278" 
d="M225 -90l-235 829h56l235 -829h-56z" />
    <glyph glyph-name="bracketright" unicode="]" horiz-adv-x="333" 
d="M53 739h189v-930h-191v50h127v830h-125v50z" />
    <glyph glyph-name="asciicircum" unicode="^" horiz-adv-x="660" 
d="M73 245l230 453h52l231 -453h-57l-201 392l-197 -392h-58z" />
    <glyph glyph-name="underscore" unicode="_" horiz-adv-x="500" 
d="M0 -75h500v-50h-500v50z" />
    <glyph glyph-name="grave" unicode="`" horiz-adv-x="333" 
d="M45 713h78l111 -139h-51z" />
    <glyph glyph-name="a" unicode="a" 
d="M283 532c126 0 188 -60 188 -157v-290c0 -28 6 -44 26 -44c9 0 21 1 37 8v-47c-13 -4 -32 -10 -50 -10c-50 0 -71 22 -72 80c-51 -57 -118 -86 -193 -86c-100 0 -173 57 -173 149c0 86 52 140 201 159l56 7c85 11 108 13 108 72c0 68 -44 105 -129 105
c-97 0 -142 -38 -151 -117h-61c8 109 85 171 213 171zM110 133c0 -56 45 -93 113 -93c108 0 188 58 188 148v84c-30 -13 -58 -21 -156 -29c-96 -8 -145 -43 -145 -110z" />
    <glyph glyph-name="b" unicode="b" horiz-adv-x="611" 
d="M79 0v720h60v-285c39 63 111 97 186 97c145 0 230 -115 230 -274c0 -172 -83 -272 -234 -272c-71 0 -145 40 -180 105h-2v-91h-60zM139 261c0 -133 69 -221 175 -221c107 0 178 76 178 215s-68 223 -179 223c-100 0 -174 -93 -174 -217z" />
    <glyph glyph-name="c" unicode="c" 
d="M285 532c123 0 196 -60 215 -177h-61c-21 77 -73 123 -154 123c-109 0 -174 -93 -174 -220s63 -218 174 -218c87 0 143 48 159 139h64c-23 -124 -102 -193 -223 -193c-151 0 -238 101 -238 272c0 157 95 274 238 274z" />
    <glyph glyph-name="d" unicode="d" horiz-adv-x="611" 
d="M472 435v285h60v-720h-60v91h-2c-33 -64 -108 -105 -180 -105c-151 0 -234 99 -234 271c0 160 86 275 231 275c75 0 148 -36 185 -97zM472 261c0 123 -71 217 -176 217c-103 0 -176 -79 -176 -222c0 -153 80 -216 177 -216c105 0 175 88 175 221z" />
    <glyph glyph-name="e" unicode="e" 
d="M283 532c143 0 228 -102 228 -287h-402c0 -127 70 -205 174 -205c80 0 140 46 157 119h67c-37 -119 -109 -173 -224 -173c-153 0 -238 103 -238 270c0 159 98 276 238 276zM109 295h338c-1 111 -64 183 -165 183c-92 0 -157 -67 -173 -183z" />
    <glyph glyph-name="f" unicode="f" horiz-adv-x="278" 
d="M208 734c17 0 32 -1 49 -4v-55c-13 4 -25 5 -36 5c-43 0 -64 -23 -64 -88v-74h100v-50h-100v-468h-60v468h-77v50h77v86c0 83 34 130 111 130z" />
    <glyph glyph-name="g" unicode="g" horiz-adv-x="611" 
d="M470 427h2v91h60v-474c0 -169 -79 -256 -243 -256c-124 0 -210 62 -219 149h64c13 -61 59 -95 155 -95c123 0 183 66 183 218v23c-39 -61 -109 -97 -185 -97c-146 0 -231 113 -231 274c0 175 85 272 234 272c72 0 147 -41 180 -105zM297 40c103 0 175 94 175 217
c0 132 -68 221 -176 221c-102 0 -176 -71 -176 -216c0 -141 68 -222 177 -222z" />
    <glyph glyph-name="h" unicode="h" 
d="M72 0v720h60v-274c60 65 108 86 167 86c109 0 184 -61 184 -176v-356h-60v342c0 85 -37 136 -133 136c-88 0 -158 -62 -158 -182v-296h-60z" />
    <glyph glyph-name="i" unicode="i" horiz-adv-x="222" 
d="M78 720h66v-89h-66v89zM81 0v518h60v-518h-60z" />
    <glyph glyph-name="j" unicode="j" horiz-adv-x="222" 
d="M85 720h66v-89h-66v89zM88 -81v599h60v-602c0 -100 -32 -120 -104 -120c-14 0 -27 1 -39 4v53c8 -1 17 -2 25 -2c43 0 58 20 58 68z" />
    <glyph glyph-name="k" unicode="k" horiz-adv-x="500" 
d="M68 0v720h60v-448l254 246h82l-194 -187l217 -331h-67l-194 289l-98 -93v-196h-60z" />
    <glyph glyph-name="l" unicode="l" horiz-adv-x="222" 
d="M81 0v720h60v-720h-60z" />
    <glyph glyph-name="m" unicode="m" horiz-adv-x="833" 
d="M438 432c35 67 94 100 169 100c108 0 161 -56 161 -199v-333h-60v359c0 79 -33 119 -108 119c-82 0 -154 -49 -154 -201v-277h-60v362c0 78 -33 116 -110 116c-75 0 -152 -48 -152 -194v-284h-60v518h60v-78h2c32 59 92 92 161 92c73 0 124 -27 151 -100z" />
    <glyph glyph-name="n" unicode="n" 
d="M483 361v-361h-60v341c0 87 -37 137 -133 137c-88 0 -158 -65 -158 -182v-296h-60v518h60v-72c60 65 108 86 167 86c102 0 184 -56 184 -171z" />
    <glyph glyph-name="o" unicode="o" 
d="M278 532c151 0 240 -108 240 -273c0 -164 -96 -273 -239 -273c-137 0 -241 99 -241 273c0 161 89 273 240 273zM102 259c0 -136 67 -219 176 -219c114 0 176 92 176 217c0 136 -58 221 -177 221c-108 0 -175 -86 -175 -219z" />
    <glyph glyph-name="p" unicode="p" horiz-adv-x="611" 
d="M321 532c151 0 234 -100 234 -272c0 -160 -86 -274 -230 -274c-75 0 -147 34 -186 97v-287h-60v722h60v-91h2c35 65 109 105 180 105zM139 257c0 -125 72 -217 175 -217c111 0 177 87 177 221c0 154 -80 217 -178 217c-104 0 -174 -88 -174 -221z" />
    <glyph glyph-name="q" unicode="q" horiz-adv-x="611" 
d="M290 532c72 0 147 -41 180 -105h2v91h60v-722h-60v287c-39 -62 -110 -97 -185 -97c-146 0 -231 113 -231 274c0 175 85 272 234 272zM472 261c0 123 -71 217 -176 217c-103 0 -176 -80 -176 -222c0 -155 82 -216 177 -216c106 0 175 88 175 221z" />
    <glyph glyph-name="r" unicode="r" horiz-adv-x="333" 
d="M306 532v-65h-7c-112 0 -164 -74 -164 -210v-257h-60v518h60v-97h2c31 77 75 111 167 111h2z" />
    <glyph glyph-name="s" unicode="s" horiz-adv-x="500" 
d="M240 532c121 0 187 -55 200 -163h-61c-9 72 -56 109 -140 109c-76 0 -117 -36 -117 -89c0 -55 51 -77 125 -95c144 -35 207 -65 207 -157c0 -94 -82 -151 -210 -151c-115 0 -191 69 -198 176h61c18 -85 62 -122 155 -122c79 0 128 39 128 97c0 39 -14 70 -154 100
c-138 30 -178 74 -178 150c0 92 80 145 182 145z" />
    <glyph glyph-name="t" unicode="t" horiz-adv-x="278" 
d="M93 518v144h60v-144h97v-50h-97v-369c0 -58 24 -59 55 -59c16 0 29 3 46 7v-49c-15 -3 -38 -12 -69 -12c-66 0 -92 36 -92 100v382h-73v50h73z" />
    <glyph glyph-name="u" unicode="u" 
d="M72 175v343h60v-344c0 -83 38 -134 133 -134c96 0 158 77 158 198v280h60v-518h-60v72c-55 -64 -101 -86 -168 -86c-120 0 -183 65 -183 189z" />
    <glyph glyph-name="v" unicode="v" horiz-adv-x="500" 
d="M17 518h65l168 -444l168 444h65l-201 -518h-67z" />
    <glyph glyph-name="w" unicode="w" horiz-adv-x="722" 
d="M173 0l-158 518h60l134 -441l120 441h67l114 -437l136 437h61l-168 -518h-64l-113 435h-2l-115 -435h-72z" />
    <glyph glyph-name="x" unicode="x" horiz-adv-x="500" 
d="M34 518h74l143 -206l147 206h76l-187 -250l194 -268h-72l-157 224l-161 -224h-73l199 268z" />
    <glyph glyph-name="y" unicode="y" horiz-adv-x="500" 
d="M18 518h67l166 -445l166 445h65l-213 -564c-13 -33 -38 -93 -67 -124c-22 -24 -49 -34 -75 -34c-20 0 -42 3 -59 7v56c20 -4 34 -6 50 -6c36 0 57 24 79 83l22 60z" />
    <glyph glyph-name="z" unicode="z" horiz-adv-x="500" 
d="M56 518h398v-53l-344 -415h357v-50h-434v53l344 415h-321v50z" />
    <glyph glyph-name="braceleft" unicode="{" horiz-adv-x="333" 
d="M254 737h18c-57 -20 -81 -61 -81 -117v-202c0 -91 -26 -128 -82 -143v-2c59 -13 82 -53 82 -130v-214c0 -58 21 -98 88 -118v-2h-8c-104 0 -144 39 -144 140v212c0 72 -29 103 -82 112v2c64 19 82 41 82 115v193c0 112 34 154 127 154z" />
    <glyph glyph-name="bar" unicode="|" horiz-adv-x="222" 
d="M81 -250v1000h60v-1000h-60z" />
    <glyph glyph-name="braceright" unicode="}" horiz-adv-x="333" 
d="M51 741v2h7c104 0 145 -38 145 -139v-213c0 -72 27 -102 82 -112v-2c-59 -17 -82 -39 -82 -110v-197c0 -115 -34 -155 -130 -155h-15c57 20 81 63 81 118v200c0 92 26 129 82 144v2c-56 12 -82 48 -82 130v215c0 60 -23 98 -88 117z" />
    <glyph glyph-name="asciitilde" unicode="~" horiz-adv-x="660" 
d="M540 339l40 -34c-39 -73 -87 -109 -140 -109c-68 0 -173 72 -219 72c-39 0 -69 -26 -108 -94l-33 47c47 73 89 103 141 103c66 0 171 -72 220 -72c33 0 67 27 99 87z" />
    <glyph glyph-name="uni00A0" unicode="&#xa0;" horiz-adv-x="278" 
 />
    <glyph glyph-name="exclamdown" unicode="&#xa1;" horiz-adv-x="333" 
d="M130 532h73v-87h-73v87zM130 37l14 315h45l14 -315v-224h-73v224z" />
    <glyph glyph-name="cent" unicode="&#xa2;" 
d="M342 527l40 120h48l-44 -134c61 -27 100 -77 112 -158h-61c-12 45 -35 79 -70 101l-135 -409c17 -4 34 -7 51 -7c87 0 143 48 159 139h64c-19 -119 -104 -193 -223 -193c-24 0 -47 3 -68 8l-45 -135h-47l49 150c-81 39 -127 126 -127 249c0 169 96 274 238 274
c20 0 42 -2 59 -5zM191 68l133 405c-12 4 -25 5 -42 5c-108 0 -173 -93 -173 -220c0 -85 31 -159 82 -190z" />
    <glyph glyph-name="sterling" unicode="&#xa3;" 
d="M503 488h-66c-4 105 -65 163 -160 163c-92 0 -160 -52 -160 -132c0 -56 40 -106 67 -154h166v-42h-151c7 -21 11 -47 11 -68c0 -61 -29 -120 -96 -188l2 -2c29 15 57 27 90 27c88 0 116 -42 182 -42c36 0 61 12 108 57l34 -51c-59 -55 -96 -70 -174 -70
c-45 0 -107 44 -176 44c-29 0 -54 -8 -106 -33l-35 58c67 48 106 113 106 180c0 30 -6 60 -21 88h-99v42h81c-19 37 -53 83 -53 156c0 113 85 184 222 184c132 0 228 -79 228 -217z" />
    <glyph glyph-name="currency" unicode="&#xa4;" 
d="M428 504l44 43l52 -53l-43 -43c32 -47 48 -93 48 -156c0 -56 -17 -96 -48 -143l43 -42l-52 -53l-44 43c-45 -33 -98 -50 -155 -50c-56 0 -101 19 -145 50l-44 -43l-52 53l43 42c-32 47 -48 91 -48 148c0 59 13 102 48 151l-43 43l52 53l44 -43c45 35 98 49 154 49
s102 -18 146 -49zM99 304c0 -112 88 -183 177 -183c100 0 182 81 182 182c0 92 -73 178 -177 178c-103 0 -182 -74 -182 -177z" />
    <glyph glyph-name="yen" unicode="&#xa5;" 
d="M64 221h182v95l-2 3h-180v54h146l-206 325h76l198 -325l198 325h76l-206 -325h146v-54h-180l-2 -3v-95h182v-54h-182v-167h-64v167h-182v54z" />
    <glyph glyph-name="brokenbar" unicode="&#xa6;" horiz-adv-x="222" 
d="M81 325v350h60v-350h-60zM81 -175v350h60v-350h-60z" />
    <glyph glyph-name="section" unicode="&#xa7;" 
d="M456 560h-54c-3 85 -40 125 -124 125c-69 0 -112 -37 -112 -97c0 -51 46 -91 132 -138c126 -69 210 -122 210 -210c0 -59 -29 -104 -110 -156c37 -31 58 -69 58 -110c0 -96 -73 -155 -176 -155c-108 0 -179 64 -186 182h61c0 -84 44 -128 125 -128c65 0 112 38 112 94
c0 45 -28 83 -111 135l-128 80c-81 51 -105 95 -105 153c0 59 39 115 107 144c-39 43 -53 74 -53 115c0 84 72 145 181 145s173 -65 173 -179zM380 331l-190 116c-53 -22 -88 -56 -88 -104c0 -40 28 -74 85 -111l178 -115c60 32 89 69 89 113c0 39 -26 70 -74 101z" />
    <glyph glyph-name="dieresis" unicode="&#xa8;" horiz-adv-x="333" 
d="M60 686h65v-102h-65v102zM219 686h65v-102h-65v102z" />
    <glyph glyph-name="copyright" unicode="&#xa9;" horiz-adv-x="800" 
d="M779 361c0 -202 -163 -380 -378 -380c-204 0 -380 164 -380 380c0 202 166 378 380 378c206 0 378 -170 378 -378zM401 31c184 0 318 145 318 330c0 178 -130 328 -319 328c-185 0 -319 -145 -319 -328s133 -330 320 -330zM593 438h-54c-14 63 -64 99 -123 99
c-92 0 -150 -68 -150 -172c0 -99 61 -176 152 -176c59 0 113 40 121 103h54c-9 -89 -86 -147 -175 -147c-123 0 -210 93 -210 219c0 127 82 217 207 217c93 0 164 -54 178 -143z" />
    <glyph glyph-name="ordfeminine" unicode="&#xaa;" horiz-adv-x="334" 
d="M284 643v-169c0 -21 4 -30 17 -30c8 0 16 2 24 5v-28c-15 -5 -21 -6 -34 -6c-26 0 -44 7 -46 48c-33 -35 -77 -52 -125 -52c-66 0 -112 34 -112 89c0 54 40 85 123 95c69 8 92 10 104 18c10 7 10 22 10 31c-2 51 -42 65 -84 65c-60 0 -92 -24 -98 -73h-40
c4 64 55 103 139 103c81 0 122 -36 122 -96zM123 441c69 0 122 36 122 92v50c-31 -12 -57 -14 -110 -19s-88 -24 -88 -65c0 -34 32 -58 76 -58z" />
    <glyph glyph-name="guillemotleft" unicode="&#xab;" 
d="M113 291l146 113v-63l-104 -82l104 -80v-62l-146 111v63zM297 291l146 113v-63l-104 -82l104 -80v-62l-146 111v63z" />
    <glyph glyph-name="logicalnot" unicode="&#xac;" horiz-adv-x="660" 
d="M80 378h500v-266h-64v206h-436v60z" />
    <glyph glyph-name="uni00AD" unicode="&#xad;" horiz-adv-x="333" 
d="M40 291h253v-62h-253v62z" />
    <glyph glyph-name="registered" unicode="&#xae;" horiz-adv-x="800" 
d="M779 361c0 -208 -166 -380 -378 -380c-203 0 -380 163 -380 380c0 207 170 378 380 378s378 -172 378 -378zM401 31c182 0 318 143 318 330c0 183 -134 328 -319 328c-183 0 -319 -145 -319 -328c0 -188 137 -330 320 -330zM260 572h189c95 0 146 -33 146 -112
c0 -75 -46 -113 -133 -116l128 -195h-62l-121 195h-95v-195h-52v423zM312 385h130c56 0 97 20 97 76c0 52 -33 74 -102 74h-125v-150z" />
    <glyph glyph-name="macron" unicode="&#xaf;" horiz-adv-x="333" 
d="M23 657h296v-45h-296v45z" />
    <glyph glyph-name="degree" unicode="&#xb0;" horiz-adv-x="400" 
d="M350 555c0 -82 -67 -150 -150 -150c-81 0 -150 65 -150 152c0 82 69 148 150 148c80 0 150 -67 150 -150zM200 445c61 0 110 50 110 110s-51 110 -112 110c-56 0 -108 -48 -108 -108c0 -64 50 -112 110 -112z" />
    <glyph glyph-name="plusminus" unicode="&#xb1;" horiz-adv-x="660" 
d="M300 330v170h60v-170h220v-60h-220v-170h-60v170h-220v60h220zM80 60h500v-60h-500v60z" />
    <glyph glyph-name="twosuperior" unicode="&#xb2;" horiz-adv-x="333" 
d="M318 622c0 -82 -63 -116 -158 -164c-55 -28 -100 -62 -101 -110h255v-32h-299c0 59 15 85 49 117c29 27 63 49 108 73c80 42 101 69 101 114c0 52 -42 87 -101 87c-57 0 -100 -47 -100 -103v-4h-44c0 83 58 139 149 139c87 0 141 -48 141 -117z" />
    <glyph glyph-name="threesuperior" unicode="&#xb3;" horiz-adv-x="333" 
d="M306 635c0 -44 -21 -77 -65 -95c53 -15 81 -51 81 -104c0 -77 -63 -128 -150 -128c-109 0 -152 38 -161 130h42c0 -61 43 -98 114 -98c61 0 113 39 113 94s-45 87 -125 87c-7 0 -19 -1 -22 -1v31c93 0 131 25 131 81c0 47 -38 75 -97 75c-56 0 -98 -34 -99 -91h-41
c0 75 55 123 141 123s138 -37 138 -104z" />
    <glyph glyph-name="acute" unicode="&#xb4;" horiz-adv-x="333" 
d="M220 713h77l-137 -139h-51z" />
    <glyph glyph-name="mu" unicode="&#xb5;" 
d="M72 -204v722h60v-344c0 -81 38 -134 133 -134c97 0 158 81 158 192v286h60v-518h-60v72c-55 -64 -101 -86 -168 -86c-56 0 -100 17 -123 32v-222h-60z" />
    <glyph glyph-name="paragraph" unicode="&#xb6;" horiz-adv-x="650" 
d="M285 720h221v-866h-60v799h-128v-799h-60v482c-111 2 -192 93 -192 190c0 124 86 194 219 194z" />
    <glyph glyph-name="periodcentered" unicode="&#xb7;" horiz-adv-x="278" 
d="M187 350c0 -25 -20 -49 -48 -49s-49 24 -49 49s24 48 49 48c26 0 48 -23 48 -48z" />
    <glyph glyph-name="cedilla" unicode="&#xb8;" horiz-adv-x="333" 
d="M90 -82l60 82h39l-47 -59c15 4 24 6 36 6c42 0 79 -24 79 -72c0 -49 -43 -82 -112 -82c-31 0 -60 8 -91 19l15 30c19 -6 41 -15 64 -15c39 0 66 19 66 47c0 25 -23 39 -50 39c-15 0 -31 -4 -44 -8z" />
    <glyph glyph-name="onesuperior" unicode="&#xb9;" horiz-adv-x="333" 
d="M214 739h33v-423h-42v314h-118v26h4c94 4 112 31 123 83z" />
    <glyph glyph-name="ordmasculine" unicode="&#xba;" horiz-adv-x="334" 
d="M323 575c0 -97 -62 -164 -155 -164c-90 0 -157 61 -157 164c0 97 59 164 156 164c99 0 156 -67 156 -164zM167 441c72 0 117 56 117 135c0 83 -42 133 -117 133c-72 0 -117 -55 -117 -134c0 -80 45 -134 117 -134z" />
    <glyph glyph-name="guillemotright" unicode="&#xbb;" 
d="M113 404l146 -111v-63l-146 -113v63l104 82l-104 80v62zM297 404l146 -111v-63l-146 -113v63l104 82l-104 80v62z" />
    <glyph glyph-name="onequarter" unicode="&#xbc;" horiz-adv-x="834" 
d="M168 -14l444 719h51l-444 -719h-51zM480 137l213 282h38v-282h63v-33h-63v-104h-42v104h-209v33zM689 137v224l-168 -224h168zM167 739h33v-423h-42v314h-118v26h4c94 4 113 32 123 83z" />
    <glyph glyph-name="onehalf" unicode="&#xbd;" horiz-adv-x="834" 
d="M167 739h33v-423h-42v314h-118v26h4c94 4 112 31 123 83zM128 -14l444 719h51l-444 -719h-51zM794 306c0 -82 -63 -116 -158 -164c-55 -28 -100 -62 -101 -110h255v-32h-299c0 59 15 85 49 117c29 27 63 49 108 73c80 42 101 69 101 114c0 52 -42 87 -101 87
c-57 0 -100 -47 -100 -103v-4h-44c0 83 58 139 149 139c87 0 141 -48 141 -117z" />
    <glyph glyph-name="threequarters" unicode="&#xbe;" horiz-adv-x="834" 
d="M208 -14l444 719h51l-444 -719h-51zM480 137l213 282h38v-282h63v-33h-63v-104h-42v104h-209v33zM689 137v224l-168 -224h168zM335 635c0 -44 -21 -77 -65 -95c53 -15 81 -51 81 -104c0 -77 -63 -128 -150 -128c-109 0 -152 38 -161 130h42c0 -61 43 -98 114 -98
c61 0 113 39 113 94s-45 87 -125 87c-7 0 -19 -1 -22 -1v31c93 0 131 25 131 81c0 47 -38 75 -97 75c-56 0 -98 -34 -99 -91h-41c0 75 55 123 141 123s138 -37 138 -104z" />
    <glyph glyph-name="questiondown" unicode="&#xbf;" horiz-adv-x="500" 
d="M28 -19c0 59 32 104 85 152c112 101 113 120 113 213v4h58v-13c0 -35 -2 -66 -8 -89c-10 -39 -26 -69 -96 -132c-53 -48 -88 -91 -88 -140c0 -75 62 -129 155 -129c91 0 154 64 154 164v5h61c1 -6 1 -13 1 -20c-2 -122 -95 -203 -217 -203c-133 0 -218 73 -218 188z
M290 444h-73v88h73v-88z" />
    <glyph glyph-name="Agrave" unicode="&#xc0;" horiz-adv-x="667" 
d="M298 720h77l276 -720h-70l-83 226h-328l-85 -226h-70zM334 662l-141 -378h282zM212 915h78l111 -139h-51z" />
    <glyph glyph-name="Aacute" unicode="&#xc1;" horiz-adv-x="667" 
d="M298 720h77l276 -720h-70l-83 226h-328l-85 -226h-70zM334 662l-141 -378h282zM387 915h77l-137 -139h-51z" />
    <glyph glyph-name="Acircumflex" unicode="&#xc2;" horiz-adv-x="667" 
d="M298 720h77l276 -720h-70l-83 226h-328l-85 -226h-70zM334 662l-141 -378h282zM305 915h67l113 -139h-65l-82 102l-82 -102h-65z" />
    <glyph glyph-name="Atilde" unicode="&#xc3;" horiz-adv-x="667" 
d="M298 720h77l276 -720h-70l-83 226h-328l-85 -226h-70zM334 662l-141 -378h282zM458 890h38c-7 -60 -39 -98 -82 -98c-53 0 -102 45 -146 45c-24 0 -38 -14 -49 -49h-36c7 65 48 97 90 97c48 0 99 -45 141 -45c21 0 37 14 44 50z" />
    <glyph glyph-name="Adieresis" unicode="&#xc4;" horiz-adv-x="667" 
d="M298 720h77l276 -720h-70l-83 226h-328l-85 -226h-70zM334 662l-141 -378h282zM227 888h65v-102h-65v102zM386 888h65v-102h-65v102z" />
    <glyph glyph-name="Aring" unicode="&#xc5;" horiz-adv-x="667" 
d="M298 720h77l276 -720h-70l-83 226h-328l-85 -226h-70zM334 662l-141 -378h282zM334 979c53 0 99 -46 99 -100s-45 -99 -99 -99s-100 45 -100 99s48 100 100 100zM267 879c0 -35 31 -66 67 -66s66 32 66 66c0 36 -31 67 -66 67c-37 0 -67 -32 -67 -67z" />
    <glyph glyph-name="AE" unicode="&#xc6;" horiz-adv-x="1000" 
d="M318 720h630v-58h-408v-260h371v-58h-371v-286h420v-58h-488v226h-303l-96 -226h-68zM472 662h-114l-161 -378h275v378z" />
    <glyph glyph-name="Ccedilla" unicode="&#xc7;" horiz-adv-x="722" 
d="M383 739c152 0 256 -81 279 -228h-70c-25 113 -94 170 -226 170c-159 0 -250 -128 -250 -319c0 -203 88 -323 255 -323c113 0 196 70 228 198h71c-40 -171 -147 -252 -300 -255l-33 -41c17 4 25 6 36 6c40 0 79 -22 79 -71c0 -50 -44 -83 -112 -83c-32 0 -60 8 -91 19
l15 30c21 -8 43 -15 64 -15c39 0 66 19 66 47c0 24 -22 39 -50 39c-15 0 -27 -3 -44 -8l-15 13l47 64c-184 13 -284 154 -284 378c0 247 119 379 335 379z" />
    <glyph glyph-name="Egrave" unicode="&#xc8;" horiz-adv-x="611" 
d="M81 720h479v-58h-411v-260h371v-58h-371v-286h421v-58h-489v720zM184 915h78l111 -139h-51z" />
    <glyph glyph-name="Eacute" unicode="&#xc9;" horiz-adv-x="611" 
d="M81 720h479v-58h-411v-260h371v-58h-371v-286h421v-58h-489v720zM359 915h77l-137 -139h-51z" />
    <glyph glyph-name="Ecircumflex" unicode="&#xca;" horiz-adv-x="611" 
d="M81 720h479v-58h-411v-260h371v-58h-371v-286h421v-58h-489v720zM277 915h67l113 -139h-65l-82 102l-82 -102h-65z" />
    <glyph glyph-name="Edieresis" unicode="&#xcb;" horiz-adv-x="611" 
d="M81 720h479v-58h-411v-260h371v-58h-371v-286h421v-58h-489v720zM199 888h65v-102h-65v102zM358 888h65v-102h-65v102z" />
    <glyph glyph-name="Igrave" unicode="&#xcc;" horiz-adv-x="278" 
d="M105 720h68v-720h-68v720zM18 915h78l111 -139h-51z" />
    <glyph glyph-name="Iacute" unicode="&#xcd;" horiz-adv-x="278" 
d="M105 720h68v-720h-68v720zM172 915h77l-137 -139h-51z" />
    <glyph glyph-name="Icircumflex" unicode="&#xce;" horiz-adv-x="278" 
d="M105 720h68v-720h-68v720zM90 915h67l113 -139h-65l-82 102l-82 -102h-65z" />
    <glyph glyph-name="Idieresis" unicode="&#xcf;" horiz-adv-x="278" 
d="M105 720h68v-720h-68v720zM24 888h65v-102h-65v102zM183 888h65v-102h-65v102z" />
    <glyph glyph-name="Eth" unicode="&#xd0;" horiz-adv-x="722" 
d="M81 720h266c117 0 199 -33 248 -100s74 -153 74 -259c0 -197 -79 -361 -326 -361h-262v353h-71v58h71v309zM149 58h177c215 0 275 130 275 303c0 181 -67 301 -261 301h-191v-251h161v-58h-161v-295z" />
    <glyph glyph-name="Ntilde" unicode="&#xd1;" horiz-adv-x="722" 
d="M79 720h77l416 -629h2v629h68v-720h-79l-414 628h-2v-628h-68v720zM486 890h38c-7 -60 -39 -98 -82 -98c-53 0 -102 45 -146 45c-24 0 -38 -14 -49 -49h-36c7 65 48 97 90 97c48 0 99 -45 141 -45c21 0 37 14 44 50z" />
    <glyph glyph-name="Ograve" unicode="&#xd2;" horiz-adv-x="778" 
d="M384 739c213 0 340 -154 340 -380c0 -223 -128 -378 -336 -378c-206 0 -335 150 -335 380c0 223 131 378 331 378zM121 359c0 -195 100 -320 268 -320c172 0 267 131 267 320c0 198 -102 322 -270 322c-165 0 -265 -133 -265 -322zM268 915h78l111 -139h-51z" />
    <glyph glyph-name="Oacute" unicode="&#xd3;" horiz-adv-x="778" 
d="M384 739c213 0 340 -154 340 -380c0 -223 -128 -378 -336 -378c-206 0 -335 150 -335 380c0 223 131 378 331 378zM121 359c0 -195 100 -320 268 -320c172 0 267 131 267 320c0 198 -102 322 -270 322c-165 0 -265 -133 -265 -322zM443 915h77l-137 -139h-51z" />
    <glyph glyph-name="Ocircumflex" unicode="&#xd4;" horiz-adv-x="778" 
d="M384 739c213 0 340 -154 340 -380c0 -223 -128 -378 -336 -378c-206 0 -335 150 -335 380c0 223 131 378 331 378zM121 359c0 -195 100 -320 268 -320c172 0 267 131 267 320c0 198 -102 322 -270 322c-165 0 -265 -133 -265 -322zM361 915h67l113 -139h-65l-82 102
l-82 -102h-65z" />
    <glyph glyph-name="Otilde" unicode="&#xd5;" horiz-adv-x="778" 
d="M384 739c213 0 340 -154 340 -380c0 -223 -128 -378 -336 -378c-206 0 -335 150 -335 380c0 223 131 378 331 378zM121 359c0 -195 100 -320 268 -320c172 0 267 131 267 320c0 198 -102 322 -270 322c-165 0 -265 -133 -265 -322zM514 890h38c-7 -60 -39 -98 -82 -98
c-53 0 -102 45 -146 45c-24 0 -38 -14 -49 -49h-36c7 65 48 97 90 97c48 0 99 -45 141 -45c21 0 37 14 44 50z" />
    <glyph glyph-name="Odieresis" unicode="&#xd6;" horiz-adv-x="778" 
d="M384 739c213 0 340 -154 340 -380c0 -223 -128 -378 -336 -378c-206 0 -335 150 -335 380c0 223 131 378 331 378zM121 359c0 -195 100 -320 268 -320c172 0 267 131 267 320c0 198 -102 322 -270 322c-165 0 -265 -133 -265 -322zM283 888h65v-102h-65v102zM442 888h65
v-102h-65v102z" />
    <glyph glyph-name="multiply" unicode="&#xd7;" horiz-adv-x="660" 
d="M82 464l37 36l211 -210l210 210l37 -36l-210 -211l210 -211l-37 -36l-210 210l-211 -210l-37 36l211 211z" />
    <glyph glyph-name="Oslash" unicode="&#xd8;" horiz-adv-x="778" 
d="M614 652l83 95l39 -35l-87 -100c45 -53 72 -149 72 -253c0 -223 -128 -378 -336 -378c-92 0 -163 28 -219 79l-85 -97l-39 34l89 101c-55 67 -81 158 -81 261c0 220 130 380 332 380c91 0 169 -26 232 -87zM118 359c0 -81 19 -153 56 -212l398 457
c-48 53 -110 77 -189 77c-163 0 -265 -131 -265 -322zM604 560l-397 -453c41 -41 102 -68 179 -68c170 0 267 130 267 320c0 71 -14 140 -49 201z" />
    <glyph glyph-name="Ugrave" unicode="&#xd9;" horiz-adv-x="722" 
d="M82 720h68v-435c0 -168 62 -246 211 -246s211 77 211 246v435h68v-454c0 -177 -91 -285 -279 -285c-184 0 -279 103 -279 286v453zM240 915h78l111 -139h-51z" />
    <glyph glyph-name="Uacute" unicode="&#xda;" horiz-adv-x="722" 
d="M82 720h68v-435c0 -168 62 -246 211 -246s211 77 211 246v435h68v-454c0 -177 -91 -285 -279 -285c-184 0 -279 103 -279 286v453zM415 915h77l-137 -139h-51z" />
    <glyph glyph-name="Ucircumflex" unicode="&#xdb;" horiz-adv-x="722" 
d="M82 720h68v-435c0 -168 62 -246 211 -246s211 77 211 246v435h68v-454c0 -177 -91 -285 -279 -285c-184 0 -279 103 -279 286v453zM333 915h67l113 -139h-65l-82 102l-82 -102h-65z" />
    <glyph glyph-name="Udieresis" unicode="&#xdc;" horiz-adv-x="722" 
d="M82 720h68v-435c0 -168 62 -246 211 -246s211 77 211 246v435h68v-454c0 -177 -91 -285 -279 -285c-184 0 -279 103 -279 286v453zM255 888h65v-102h-65v102zM414 888h65v-102h-65v102z" />
    <glyph glyph-name="Yacute" unicode="&#xdd;" horiz-adv-x="611" 
d="M12 720h78l212 -347l217 347h79l-261 -406v-314h-68v309zM359 915h77l-137 -139h-51z" />
    <glyph glyph-name="Thorn" unicode="&#xde;" horiz-adv-x="611" 
d="M78 720h68v-150h200c149 0 230 -65 230 -201c0 -133 -102 -201 -271 -201h-159v-168h-68v720zM146 226h162c145 0 200 43 200 148c0 92 -62 138 -183 138h-179v-286z" />
    <glyph glyph-name="germandbls" unicode="&#xdf;" horiz-adv-x="500" 
d="M239 734c117 0 193 -73 193 -186c0 -64 -33 -108 -84 -145c71 -25 111 -98 111 -179c0 -153 -77 -238 -210 -238c-15 0 -30 2 -38 5v53c12 -3 22 -3 37 -3c89 0 147 62 147 159c0 123 -55 175 -184 175v50c97 0 157 40 157 124s-45 131 -126 131
c-86 0 -130 -26 -130 -137v-543h-60v548c0 115 59 186 187 186z" />
    <glyph glyph-name="agrave" unicode="&#xe0;" 
d="M283 532c126 0 188 -60 188 -157v-290c0 -28 6 -44 26 -44c9 0 21 1 37 8v-47c-13 -4 -32 -10 -50 -10c-50 0 -71 22 -72 80c-51 -57 -118 -86 -193 -86c-100 0 -173 57 -173 149c0 86 52 140 201 159l56 7c85 11 108 13 108 72c0 68 -44 105 -129 105
c-97 0 -142 -38 -151 -117h-61c8 109 85 171 213 171zM110 133c0 -56 45 -93 113 -93c108 0 188 58 188 148v84c-30 -13 -58 -21 -156 -29c-96 -8 -145 -43 -145 -110zM157 713h78l111 -139h-51z" />
    <glyph glyph-name="aacute" unicode="&#xe1;" 
d="M283 532c126 0 188 -60 188 -157v-290c0 -28 6 -44 26 -44c9 0 21 1 37 8v-47c-13 -4 -32 -10 -50 -10c-50 0 -71 22 -72 80c-51 -57 -118 -86 -193 -86c-100 0 -173 57 -173 149c0 86 52 140 201 159l56 7c85 11 108 13 108 72c0 68 -44 105 -129 105
c-97 0 -142 -38 -151 -117h-61c8 109 85 171 213 171zM110 133c0 -56 45 -93 113 -93c108 0 188 58 188 148v84c-30 -13 -58 -21 -156 -29c-96 -8 -145 -43 -145 -110zM332 713h77l-137 -139h-51z" />
    <glyph glyph-name="acircumflex" unicode="&#xe2;" 
d="M283 532c126 0 188 -60 188 -157v-290c0 -28 6 -44 26 -44c9 0 21 1 37 8v-47c-13 -4 -32 -10 -50 -10c-50 0 -71 22 -72 80c-51 -57 -118 -86 -193 -86c-100 0 -173 57 -173 149c0 86 52 140 201 159l56 7c85 11 108 13 108 72c0 68 -44 105 -129 105
c-97 0 -142 -38 -151 -117h-61c8 109 85 171 213 171zM110 133c0 -56 45 -93 113 -93c108 0 188 58 188 148v84c-30 -13 -58 -21 -156 -29c-96 -8 -145 -43 -145 -110zM250 713h67l113 -139h-65l-82 102l-82 -102h-65z" />
    <glyph glyph-name="atilde" unicode="&#xe3;" 
d="M283 532c126 0 188 -60 188 -157v-290c0 -28 6 -44 26 -44c9 0 21 1 37 8v-47c-13 -4 -32 -10 -50 -10c-50 0 -71 22 -72 80c-51 -57 -118 -86 -193 -86c-100 0 -173 57 -173 149c0 86 52 140 201 159l56 7c85 11 108 13 108 72c0 68 -44 105 -129 105
c-97 0 -142 -38 -151 -117h-61c8 109 85 171 213 171zM110 133c0 -56 45 -93 113 -93c108 0 188 58 188 148v84c-30 -13 -58 -21 -156 -29c-96 -8 -145 -43 -145 -110zM403 688h38c-7 -60 -39 -98 -82 -98c-53 0 -102 45 -146 45c-24 0 -38 -14 -49 -49h-36
c7 65 48 97 90 97c48 0 99 -45 141 -45c21 0 37 14 44 50z" />
    <glyph glyph-name="adieresis" unicode="&#xe4;" 
d="M283 532c126 0 188 -60 188 -157v-290c0 -28 6 -44 26 -44c9 0 21 1 37 8v-47c-13 -4 -32 -10 -50 -10c-50 0 -71 22 -72 80c-51 -57 -118 -86 -193 -86c-100 0 -173 57 -173 149c0 86 52 140 201 159l56 7c85 11 108 13 108 72c0 68 -44 105 -129 105
c-97 0 -142 -38 -151 -117h-61c8 109 85 171 213 171zM110 133c0 -56 45 -93 113 -93c108 0 188 58 188 148v84c-30 -13 -58 -21 -156 -29c-96 -8 -145 -43 -145 -110zM172 686h65v-102h-65v102zM331 686h65v-102h-65v102z" />
    <glyph glyph-name="aring" unicode="&#xe5;" 
d="M283 532c126 0 188 -60 188 -157v-290c0 -28 6 -44 26 -44c9 0 21 1 37 8v-47c-13 -4 -32 -10 -50 -10c-50 0 -71 22 -72 80c-51 -57 -118 -86 -193 -86c-100 0 -173 57 -173 149c0 86 52 140 201 159l56 7c85 11 108 13 108 72c0 68 -44 105 -129 105
c-97 0 -142 -38 -151 -117h-61c8 109 85 171 213 171zM110 133c0 -56 45 -93 113 -93c108 0 188 58 188 148v84c-30 -13 -58 -21 -156 -29c-96 -8 -145 -43 -145 -110zM279 777c53 0 99 -46 99 -100c0 -53 -44 -99 -99 -99c-54 0 -100 45 -100 99c0 53 47 100 100 100z
M212 677c0 -35 31 -66 67 -66c35 0 66 31 66 66c0 36 -31 67 -66 67c-36 0 -67 -31 -67 -67z" />
    <glyph glyph-name="ae" unicode="&#xe6;" horiz-adv-x="889" 
d="M446 447c37 56 87 85 182 85c142 0 219 -86 219 -287h-390c1 -132 64 -205 172 -205c79 0 131 45 151 120h63c-27 -112 -102 -174 -219 -174c-89 0 -153 35 -200 114c-60 -85 -126 -114 -217 -114c-104 0 -168 54 -168 146c0 81 45 151 196 165c132 12 158 19 158 69
c0 84 -30 112 -125 112c-91 0 -137 -40 -145 -114h-62c5 105 81 168 204 168c95 0 158 -30 181 -85zM457 295h326c-1 111 -62 183 -159 183c-99 0 -165 -76 -167 -183zM211 40c117 0 182 64 182 164v70c-32 -19 -99 -25 -176 -36c-75 -11 -114 -38 -114 -97
c0 -67 41 -101 108 -101z" />
    <glyph glyph-name="ccedilla" unicode="&#xe7;" 
d="M285 532c123 0 197 -60 215 -177h-61c-21 77 -73 123 -154 123c-109 0 -174 -93 -174 -220s63 -218 174 -218c86 0 143 48 159 139h64c-24 -125 -101 -190 -218 -193l-36 -45c17 4 25 6 36 6c37 0 79 -20 79 -69c0 -56 -46 -85 -112 -85c-32 0 -60 8 -91 19l15 30
c20 -8 43 -15 64 -15c39 0 66 19 66 47c0 24 -22 39 -50 39c-15 0 -27 -3 -44 -8l-15 13l52 71c-132 12 -207 113 -207 269c0 157 96 274 238 274z" />
    <glyph glyph-name="egrave" unicode="&#xe8;" 
d="M283 532c143 0 228 -102 228 -287h-402c0 -127 70 -205 174 -205c80 0 140 46 157 119h67c-37 -119 -109 -173 -224 -173c-153 0 -238 103 -238 270c0 159 98 276 238 276zM109 295h338c-1 111 -64 183 -165 183c-92 0 -157 -67 -173 -183zM157 713h78l111 -139h-51z" />
    <glyph glyph-name="eacute" unicode="&#xe9;" 
d="M283 532c143 0 228 -102 228 -287h-402c0 -127 70 -205 174 -205c80 0 140 46 157 119h67c-37 -119 -109 -173 -224 -173c-153 0 -238 103 -238 270c0 159 98 276 238 276zM109 295h338c-1 111 -64 183 -165 183c-92 0 -157 -67 -173 -183zM332 713h77l-137 -139h-51z
" />
    <glyph glyph-name="ecircumflex" unicode="&#xea;" 
d="M283 532c143 0 228 -102 228 -287h-402c0 -127 70 -205 174 -205c80 0 140 46 157 119h67c-37 -119 -109 -173 -224 -173c-153 0 -238 103 -238 270c0 159 98 276 238 276zM109 295h338c-1 111 -64 183 -165 183c-92 0 -157 -67 -173 -183zM250 713h67l113 -139h-65
l-82 102l-82 -102h-65z" />
    <glyph glyph-name="edieresis" unicode="&#xeb;" 
d="M283 532c143 0 228 -102 228 -287h-402c0 -127 70 -205 174 -205c80 0 140 46 157 119h67c-37 -119 -109 -173 -224 -173c-153 0 -238 103 -238 270c0 159 98 276 238 276zM109 295h338c-1 111 -64 183 -165 183c-92 0 -157 -67 -173 -183zM172 686h65v-102h-65v102z
M331 686h65v-102h-65v102z" />
    <glyph glyph-name="igrave" unicode="&#xec;" horiz-adv-x="222" 
d="M78 0v518h60v-518h-60zM-10 713h78l111 -139h-51z" />
    <glyph glyph-name="iacute" unicode="&#xed;" horiz-adv-x="222" 
d="M78 0v518h60v-518h-60zM144 713h77l-137 -139h-51z" />
    <glyph glyph-name="icircumflex" unicode="&#xee;" horiz-adv-x="222" 
d="M78 0v518h60v-518h-60zM62 713h67l113 -139h-65l-82 102l-82 -102h-65z" />
    <glyph glyph-name="idieresis" unicode="&#xef;" horiz-adv-x="222" 
d="M78 0v518h60v-518h-60zM-16 686h65v-102h-65v102zM143 686h65v-102h-65v102z" />
    <glyph glyph-name="eth" unicode="&#xf0;" 
d="M215 706l41 33c27 -12 52 -26 79 -45l55 45l37 -25l-59 -48c100 -97 150 -243 150 -406s-95 -274 -239 -274c-137 0 -241 100 -241 272c0 159 87 274 237 274c71 0 102 -11 145 -46c-24 68 -51 113 -91 149l-61 -49l-38 24l65 52c-23 16 -51 31 -80 44zM102 259
c0 -136 67 -219 176 -219c112 0 176 92 176 217c0 136 -60 221 -177 221c-108 0 -175 -86 -175 -219z" />
    <glyph glyph-name="ntilde" unicode="&#xf1;" 
d="M483 361v-361h-60v341c0 87 -37 137 -133 137c-88 0 -158 -65 -158 -182v-296h-60v518h60v-72c60 65 108 86 167 86c102 0 184 -56 184 -171zM403 688h38c-7 -60 -39 -98 -82 -98c-53 0 -102 45 -146 45c-24 0 -38 -14 -49 -49h-36c7 65 48 97 90 97c48 0 99 -45 141 -45
c21 0 37 14 44 50z" />
    <glyph glyph-name="ograve" unicode="&#xf2;" 
d="M278 532c151 0 240 -108 240 -273c0 -164 -96 -273 -239 -273c-137 0 -241 99 -241 273c0 161 89 273 240 273zM102 259c0 -136 67 -219 176 -219c114 0 176 92 176 217c0 136 -58 221 -177 221c-108 0 -175 -86 -175 -219zM157 713h78l111 -139h-51z" />
    <glyph glyph-name="oacute" unicode="&#xf3;" 
d="M278 532c151 0 240 -108 240 -273c0 -164 -96 -273 -239 -273c-137 0 -241 99 -241 273c0 161 89 273 240 273zM102 259c0 -136 67 -219 176 -219c114 0 176 92 176 217c0 136 -58 221 -177 221c-108 0 -175 -86 -175 -219zM332 713h77l-137 -139h-51z" />
    <glyph glyph-name="ocircumflex" unicode="&#xf4;" 
d="M278 532c151 0 240 -108 240 -273c0 -164 -96 -273 -239 -273c-137 0 -241 99 -241 273c0 161 89 273 240 273zM102 259c0 -136 67 -219 176 -219c114 0 176 92 176 217c0 136 -58 221 -177 221c-108 0 -175 -86 -175 -219zM250 713h67l113 -139h-65l-82 102l-82 -102
h-65z" />
    <glyph glyph-name="otilde" unicode="&#xf5;" 
d="M278 532c151 0 240 -108 240 -273c0 -164 -96 -273 -239 -273c-137 0 -241 99 -241 273c0 161 89 273 240 273zM102 259c0 -136 67 -219 176 -219c114 0 176 92 176 217c0 136 -58 221 -177 221c-108 0 -175 -86 -175 -219zM403 688h38c-7 -60 -39 -98 -82 -98
c-53 0 -102 45 -146 45c-24 0 -38 -14 -49 -49h-36c7 65 48 97 90 97c48 0 99 -45 141 -45c21 0 37 14 44 50z" />
    <glyph glyph-name="odieresis" unicode="&#xf6;" 
d="M278 532c151 0 240 -108 240 -273c0 -164 -96 -273 -239 -273c-137 0 -241 99 -241 273c0 161 89 273 240 273zM102 259c0 -136 67 -219 176 -219c114 0 176 92 176 217c0 136 -58 221 -177 221c-108 0 -175 -86 -175 -219zM172 686h65v-102h-65v102zM331 686h65v-102
h-65v102z" />
    <glyph glyph-name="divide" unicode="&#xf7;" horiz-adv-x="660" 
d="M294 500h73v-88h-73v88zM80 280h500v-60h-500v60zM294 88h73v-88h-73v88z" />
    <glyph glyph-name="oslash" unicode="&#xf8;" 
d="M434 479l52 62l35 -31l-55 -65c36 -48 54 -114 54 -187c0 -166 -91 -272 -240 -272c-61 0 -119 20 -155 55l-54 -64l-36 29l58 68c-37 49 -53 113 -53 184c0 165 91 274 240 274c65 0 114 -18 154 -53zM104 257c0 -61 14 -105 31 -133l260 309c-26 29 -68 45 -116 45
c-109 0 -175 -88 -175 -221zM425 397l-263 -312c28 -30 75 -45 118 -45c110 0 176 86 176 218c0 51 -7 99 -31 139z" />
    <glyph glyph-name="ugrave" unicode="&#xf9;" 
d="M72 175v343h60v-344c0 -83 38 -134 133 -134c96 0 158 77 158 198v280h60v-518h-60v72c-55 -64 -101 -86 -168 -86c-120 0 -183 65 -183 189zM157 713h78l111 -139h-51z" />
    <glyph glyph-name="uacute" unicode="&#xfa;" 
d="M72 175v343h60v-344c0 -83 38 -134 133 -134c96 0 158 77 158 198v280h60v-518h-60v72c-55 -64 -101 -86 -168 -86c-120 0 -183 65 -183 189zM332 713h77l-137 -139h-51z" />
    <glyph glyph-name="ucircumflex" unicode="&#xfb;" 
d="M72 175v343h60v-344c0 -83 38 -134 133 -134c96 0 158 77 158 198v280h60v-518h-60v72c-55 -64 -101 -86 -168 -86c-120 0 -183 65 -183 189zM250 713h67l113 -139h-65l-82 102l-82 -102h-65z" />
    <glyph glyph-name="udieresis" unicode="&#xfc;" 
d="M72 175v343h60v-344c0 -83 38 -134 133 -134c96 0 158 77 158 198v280h60v-518h-60v72c-55 -64 -101 -86 -168 -86c-120 0 -183 65 -183 189zM172 686h65v-102h-65v102zM331 686h65v-102h-65v102z" />
    <glyph glyph-name="yacute" unicode="&#xfd;" horiz-adv-x="500" 
d="M18 518h67l166 -445l166 445h65l-213 -564c-13 -33 -38 -93 -67 -124c-22 -24 -49 -34 -75 -34c-20 0 -42 3 -59 7v56c20 -4 34 -6 50 -6c36 0 57 24 79 83l22 60zM304 713h77l-137 -139h-51z" />
    <glyph glyph-name="thorn" unicode="&#xfe;" horiz-adv-x="611" 
d="M321 532c151 0 234 -100 234 -272c0 -160 -86 -274 -230 -274c-75 0 -147 34 -186 97v-287h-60v924h60v-293h2c35 65 109 105 180 105zM139 257c0 -125 72 -217 175 -217c111 0 177 87 177 221c0 154 -80 217 -178 217c-104 0 -174 -88 -174 -221z" />
    <glyph glyph-name="ydieresis" unicode="&#xff;" horiz-adv-x="500" 
d="M18 518h67l166 -445l166 445h65l-213 -564c-13 -33 -38 -93 -67 -124c-22 -24 -49 -34 -75 -34c-20 0 -42 3 -59 7v56c20 -4 34 -6 50 -6c36 0 57 24 79 83l22 60zM144 686h65v-102h-65v102zM303 686h65v-102h-65v102z" />
    <glyph glyph-name="dotlessi" unicode="&#x131;" horiz-adv-x="222" 
d="M78 0v518h60v-518h-60z" />
    <glyph glyph-name="Lslash" unicode="&#x141;" 
d="M81 720h68v-250l81 40v-60l-81 -40v-352h386v-58h-454v360l-81 -40v60l81 40v300z" />
    <glyph glyph-name="lslash" unicode="&#x142;" horiz-adv-x="222" 
d="M81 400v320h60v-270l71 40v-60l-71 -40v-390h-60v340l-71 -40v60z" />
    <glyph glyph-name="OE" unicode="&#x152;" horiz-adv-x="1000" 
d="M346 739c104 0 165 -31 204 -95v76h407v-58h-342v-260h320v-58h-320v-286h352v-58h-417v72c-64 -65 -125 -91 -201 -91c-197 0 -308 152 -308 378c0 232 109 380 305 380zM109 361c0 -204 86 -322 245 -322c73 0 193 48 193 164v299c0 109 -72 179 -202 179
c-151 0 -236 -111 -236 -320z" />
    <glyph glyph-name="oe" unicode="&#x153;" horiz-adv-x="944" 
d="M479 407c44 84 109 125 205 125c148 0 220 -91 220 -287h-394v-12c0 -109 70 -193 176 -193c76 0 134 48 150 120h61c-23 -108 -100 -174 -213 -174c-88 0 -162 42 -205 126c-39 -80 -116 -126 -212 -126c-138 0 -231 107 -231 272c0 167 84 274 235 274
c97 0 165 -37 208 -125zM272 40c109 0 175 88 175 229c0 129 -68 209 -181 209c-103 0 -166 -80 -166 -221c0 -148 73 -217 172 -217zM511 295h329c0 117 -58 183 -159 183c-93 0 -163 -72 -170 -183z" />
    <glyph glyph-name="Scaron" unicode="&#x160;" horiz-adv-x="611" 
d="M546 524h-65c0 98 -70 157 -177 157c-109 0 -178 -57 -178 -138c0 -114 125 -126 258 -158c168 -41 183 -129 183 -194c0 -131 -96 -210 -263 -210c-161 0 -261 87 -261 234h66c11 -117 82 -176 207 -176c118 0 183 60 183 149c0 76 -45 116 -172 145
c-143 33 -267 61 -267 212c0 112 97 194 244 194c151 0 242 -87 242 -215zM163 915h65l82 -102l82 102h65l-113 -139h-67z" />
    <glyph glyph-name="scaron" unicode="&#x161;" horiz-adv-x="500" 
d="M240 532c121 0 187 -55 200 -163h-61c-9 72 -56 109 -140 109c-76 0 -117 -36 -117 -89c0 -55 51 -77 125 -95c144 -35 207 -65 207 -157c0 -94 -82 -151 -210 -151c-115 0 -191 69 -198 176h61c18 -85 62 -122 155 -122c79 0 128 39 128 97c0 39 -14 70 -154 100
c-138 30 -178 74 -178 150c0 92 80 145 182 145zM108 713h65l82 -102l82 102h65l-113 -139h-67z" />
    <glyph glyph-name="Ydieresis" unicode="&#x178;" horiz-adv-x="611" 
d="M12 720h78l212 -347l217 347h79l-261 -406v-314h-68v309zM199 888h65v-102h-65v102zM358 888h65v-102h-65v102z" />
    <glyph glyph-name="Zcaron" unicode="&#x17d;" horiz-adv-x="611" 
d="M70 720h506v-57l-461 -605h464v-58h-548v57l461 605h-422v58zM163 915h65l82 -102l82 102h65l-113 -139h-67z" />
    <glyph glyph-name="zcaron" unicode="&#x17e;" horiz-adv-x="500" 
d="M56 518h398v-53l-344 -415h357v-50h-434v53l344 415h-321v50zM108 713h65l82 -102l82 102h65l-113 -139h-67z" />
    <glyph glyph-name="florin" unicode="&#x192;" 
d="M539 714l-20 -49c-25 12 -36 15 -53 15c-54 0 -87 -28 -109 -144c-9 -47 -16 -77 -19 -88h115v-48h-123l-64 -335c-36 -187 -94 -261 -198 -261c-19 0 -36 4 -55 11l19 57c19 -11 27 -13 48 -13c30 0 51 14 67 42c36 62 51 130 86 322l32 177h-113v48h121
c4 17 10 42 17 75c31 147 87 211 179 211c25 0 47 -7 70 -20z" />
    <glyph glyph-name="circumflex" unicode="&#x2c6;" horiz-adv-x="333" 
d="M138 713h67l113 -139h-65l-82 102l-82 -102h-65z" />
    <glyph glyph-name="caron" unicode="&#x2c7;" horiz-adv-x="333" 
d="M24 713h65l82 -102l82 102h65l-113 -139h-67z" />
    <glyph glyph-name="uni02C9" unicode="&#x2c9;" horiz-adv-x="333" 
d="M23 657h296v-45h-296v45z" />
    <glyph glyph-name="breve" unicode="&#x2d8;" horiz-adv-x="333" 
d="M28 706h39c11 -55 49 -81 105 -81s94 25 107 81h37c-8 -80 -62 -126 -149 -126c-79 0 -132 45 -139 126z" />
    <glyph glyph-name="dotaccent" unicode="&#x2d9;" horiz-adv-x="333" 
d="M134 686h65v-102h-65v102z" />
    <glyph glyph-name="ring" unicode="&#x2da;" horiz-adv-x="333" 
d="M167 777c53 0 99 -46 99 -100c0 -53 -44 -99 -99 -99c-54 0 -100 45 -100 99c0 53 47 100 100 100zM100 677c0 -35 31 -66 67 -66c35 0 66 31 66 66c0 36 -31 67 -66 67c-36 0 -67 -31 -67 -67z" />
    <glyph glyph-name="ogonek" unicode="&#x2db;" horiz-adv-x="333" 
d="M149 2h50v-2c-48 -24 -80 -55 -80 -87c0 -35 28 -57 67 -57c15 0 29 3 42 9v-44c-19 -7 -36 -9 -52 -9c-57 0 -102 34 -102 87c0 43 30 79 75 103z" />
    <glyph glyph-name="tilde" unicode="&#x2dc;" horiz-adv-x="333" 
d="M291 688h38c-7 -60 -39 -98 -82 -98c-53 0 -102 45 -146 45c-24 0 -38 -14 -49 -49h-36c7 65 48 97 90 97c48 0 99 -45 141 -45c21 0 37 14 44 50z" />
    <glyph glyph-name="hungarumlaut" unicode="&#x2dd;" horiz-adv-x="333" 
d="M220 713h77l-137 -139h-51zM382 713h77l-137 -139h-51z" />
    <glyph glyph-name="uni03A9" unicode="&#x3a9;" horiz-adv-x="618" 
d="M574 371c0 -117 -44 -229 -120 -303v-4h130v-64h-225v52c82 68 132 186 132 304c0 142 -69 271 -181 271s-184 -127 -184 -270c0 -111 57 -246 132 -305v-52h-225v64h129v4c-76 75 -119 186 -119 297c0 195 116 328 271 328s260 -135 260 -322z" />
    <glyph glyph-name="uni03BC" unicode="&#x3bc;" 
d="M72 -204v722h60v-344c0 -81 38 -134 133 -134c97 0 158 81 158 192v286h60v-518h-60v72c-55 -64 -101 -86 -168 -86c-56 0 -100 17 -123 32v-222h-60z" />
    <glyph glyph-name="pi" unicode="&#x3c0;" horiz-adv-x="530" 
d="M32 505h462v-62h-76v-331c0 -41 10 -57 38 -57c15 0 27 4 42 12v-54c-23 -12 -43 -19 -70 -19c-61 0 -86 42 -86 131v318h-164v-443h-76v443h-70v62z" />
    <glyph glyph-name="endash" unicode="&#x2013;" horiz-adv-x="500" 
d="M0 282h500v-44h-500v44z" />
    <glyph glyph-name="emdash" unicode="&#x2014;" horiz-adv-x="1000" 
d="M0 282h1000v-44h-1000v44z" />
    <glyph glyph-name="quoteleft" unicode="&#x2018;" horiz-adv-x="222" 
d="M142 720v-37c-25 -17 -34 -38 -34 -63v-37h34v-88h-73v121c0 47 24 88 73 104z" />
    <glyph glyph-name="quoteright" unicode="&#x2019;" horiz-adv-x="222" 
d="M80 720h73v-120c0 -48 -24 -89 -73 -105v37c24 15 34 36 34 63v37h-34v88z" />
    <glyph glyph-name="quotesinglbase" unicode="&#x201a;" horiz-adv-x="222" 
d="M80 88h73v-121c0 -48 -25 -88 -73 -104v37c25 16 34 38 34 63v37h-34v88z" />
    <glyph glyph-name="quotedblleft" unicode="&#x201c;" horiz-adv-x="389" 
d="M159 720v-37c-25 -17 -34 -38 -34 -63v-37h34v-88h-73v121c0 47 25 88 73 104zM310 720v-37c-25 -17 -34 -38 -34 -63v-37h34v-88h-73v121c0 47 24 88 73 104z" />
    <glyph glyph-name="quotedblright" unicode="&#x201d;" horiz-adv-x="389" 
d="M79 720h73v-121c0 -48 -24 -88 -73 -104v37c24 15 34 36 34 63v37h-34v88zM230 720h73v-121c0 -45 -22 -88 -73 -104v37c24 15 34 37 34 61v39h-34v88z" />
    <glyph glyph-name="quotedblbase" unicode="&#x201e;" horiz-adv-x="389" 
d="M79 88h73v-121c0 -48 -25 -88 -73 -104v37c25 16 34 34 34 65v35h-34v88zM230 88h73v-121c0 -47 -24 -88 -73 -104v37c27 17 34 40 34 64v36h-34v88z" />
    <glyph glyph-name="dagger" unicode="&#x2020;" 
d="M248 490v230h60v-230h211v-54h-211v-602h-60v602h-211v54h211z" />
    <glyph glyph-name="daggerdbl" unicode="&#x2021;" 
d="M248 497v223h60v-223h211v-54h-211v-334h211v-54h-211v-221h-60v221h-211v54h211v334h-211v54h211z" />
    <glyph glyph-name="bullet" unicode="&#x2022;" horiz-adv-x="500" 
d="M430 359c0 -97 -82 -179 -181 -179c-97 0 -179 82 -179 179c0 99 82 181 179 181c98 0 181 -82 181 -181z" />
    <glyph glyph-name="ellipsis" unicode="&#x2026;" horiz-adv-x="1000" 
d="M131 88h73v-88h-73v88zM464 88h73v-88h-73v88zM797 88h73v-88h-73v88z" />
    <glyph glyph-name="perthousand" unicode="&#x2030;" horiz-adv-x="1000" 
d="M86 -14l408 719h52l-407 -719h-53zM313 549c0 -83 -68 -150 -150 -150s-149 70 -149 150s68 149 149 149s150 -68 150 -149zM163 456c48 0 93 43 93 94c0 50 -46 91 -93 91c-49 0 -92 -43 -92 -92s44 -93 92 -93zM623 150c0 -83 -68 -150 -150 -150s-149 70 -149 150
s68 149 149 149s150 -68 150 -149zM473 57c48 0 93 43 93 94c0 50 -46 91 -93 91c-49 0 -92 -43 -92 -92s44 -93 92 -93zM985 150c0 -83 -68 -150 -150 -150s-149 70 -149 150s68 149 149 149s150 -68 150 -149zM835 57c48 0 93 43 93 94c0 50 -46 91 -93 91
c-49 0 -92 -43 -92 -92s44 -93 92 -93z" />
    <glyph glyph-name="guilsinglleft" unicode="&#x2039;" horiz-adv-x="389" 
d="M121 291l146 113v-63l-104 -82l104 -80v-62l-146 111v63z" />
    <glyph glyph-name="guilsinglright" unicode="&#x203a;" horiz-adv-x="389" 
d="M122 404l146 -111v-63l-146 -113v63l104 82l-104 80v62z" />
    <glyph glyph-name="fraction" unicode="&#x2044;" horiz-adv-x="167" 
d="M-164 -14l444 719h51l-444 -719h-51z" />
    <glyph glyph-name="Euro" unicode="&#x20ac;" horiz-adv-x="552" 
d="M336 40c81 0 132 54 144 140h64c-13 -115 -94 -194 -209 -194c-148 0 -211 107 -232 255h-91l20 54h66c-1 16 -2 37 -2 52c0 16 0 30 1 46h-83l19 54h69c19 151 81 258 232 258c121 0 188 -72 206 -194h-64c-13 86 -61 140 -142 140c-118 0 -150 -86 -168 -204h312
l-20 -54h-297c-1 -16 -1 -30 -1 -46c0 -15 1 -37 2 -52h260l-20 -54h-233c20 -132 66 -201 167 -201z" />
    <glyph glyph-name="uni20B9" unicode="&#x20b9;" 
d="M551 492h-106c0 -126 -97 -176 -224 -176h-87l325 -316h-89l-314 313v57h169c89 0 157 34 157 122h-326v54h323c-20 74 -77 98 -151 98h-172v54h495v-54h-170c35 -22 55 -60 61 -98h109v-54z" />
    <glyph glyph-name="uni20BA" unicode="&#x20ba;" 
d="M181 301v-247h18c188 0 255 151 261 286h64c-9 -160 -82 -340 -325 -340h-80v272l-92 -43v58l92 43v108l-92 -44v58l92 44v202h62v-174l223 108v-58l-223 -108v-107l223 108v-58z" />
    <glyph glyph-name="uni20BC" unicode="&#x20bc;" horiz-adv-x="693" 
d="M377 521v-451h-62v451c-175 -15 -232 -291 -232 -466v-55h-62v66c0 215 79 495 294 509v123h62v-123c215 -14 294 -294 294 -509v-66h-62v55c0 175 -57 451 -232 466z" />
    <glyph glyph-name="uni20BD" unicode="&#x20bd;" 
d="M19 314v54h86v323h216c133 0 217 -55 217 -188c0 -132 -98 -189 -231 -189h-140v-74h191v-54h-191v-186h-62v186h-86v54h86v74h-86zM167 368h131c104 0 176 29 176 135c0 100 -63 134 -165 134h-142v-269z" />
    <glyph glyph-name="afii61289" unicode="&#x2113;" horiz-adv-x="474" 
d="M379 568c0 -115 -56 -220 -192 -349v-17c0 -103 27 -140 78 -140c43 0 75 11 116 58l41 -40c-35 -55 -89 -89 -162 -89c-96 0 -144 43 -152 174l-51 -38l-26 47l76 60v227c0 168 43 257 150 257c72 0 122 -59 122 -150zM187 515v-214c73 81 122 171 122 266
c0 57 -20 90 -57 90s-65 -51 -65 -142z" />
    <glyph glyph-name="trademark" unicode="&#x2122;" horiz-adv-x="940" 
d="M29 720h320v-40h-134v-381h-52v381h-134v40zM427 720h96l120 -311h2l118 311h96v-421h-52v377h-2l-145 -377h-34l-145 377h-2v-377h-52v421z" />
    <glyph glyph-name="Omega" unicode="&#x2126;" horiz-adv-x="618" 
d="M574 371c0 -117 -44 -229 -120 -303v-4h130v-64h-225v52c82 68 132 186 132 304c0 142 -69 271 -181 271s-184 -127 -184 -270c0 -111 57 -246 132 -305v-52h-225v64h129v4c-76 75 -119 186 -119 297c0 195 116 328 271 328s260 -135 260 -322z" />
    <glyph glyph-name="estimated" unicode="&#x212e;" horiz-adv-x="742" 
d="M698 340h-511v-230c48 -48 110 -75 183 -75c108 0 183 49 244 152l44 -26c-75 -121 -157 -171 -288 -171c-194 0 -326 150 -326 350c0 204 135 350 326 350c196 0 326 -146 328 -350zM187 569v-183h368v183c-51 49 -114 76 -187 76c-69 0 -130 -24 -181 -76z" />
    <glyph glyph-name="partialdiff" unicode="&#x2202;" horiz-adv-x="485" 
d="M449 376c0 -250 -110 -386 -239 -386c-110 0 -176 80 -176 207c0 136 90 244 202 244c61 0 112 -28 142 -77h1v22c0 191 -81 308 -173 308c-56 0 -97 -18 -124 -37l-23 49c12 11 74 49 150 49c134 0 240 -149 240 -379zM215 50c77 0 143 94 156 242
c-21 55 -68 90 -124 90c-78 0 -140 -81 -140 -183c0 -96 41 -149 108 -149z" />
    <glyph glyph-name="Delta" unicode="&#x2206;" horiz-adv-x="592" 
d="M252 680h89l225 -634v-46h-539v46zM296 609h-4c-2 -14 -6 -25 -80 -235l-111 -313h387l-87 242c-68 190 -103 292 -105 306z" />
    <glyph glyph-name="product" unicode="&#x220f;" horiz-adv-x="628" 
d="M54 748h520v-878h-72v815h-376v-815h-72v878z" />
    <glyph glyph-name="summation" unicode="&#x2211;" horiz-adv-x="564" 
d="M23 748h514v-62h-420v-3l205 -374l-218 -373v-4h463v-62h-558v46l231 389l-217 392v51z" />
    <glyph glyph-name="minus" unicode="&#x2212;" horiz-adv-x="660" 
d="M80 280h500v-60h-500v60z" />
    <glyph glyph-name="uni2215" unicode="&#x2215;" horiz-adv-x="167" 
d="M-164 -14l444 719h51l-444 -719h-51z" />
    <glyph glyph-name="uni2219" unicode="&#x2219;" horiz-adv-x="278" 
d="M187 350c0 -25 -20 -49 -48 -49s-49 24 -49 49s24 48 49 48c26 0 48 -23 48 -48z" />
    <glyph glyph-name="radical" unicode="&#x221a;" horiz-adv-x="512" 
d="M449 800h62l-210 -890h-59c-68 190 -103 283 -147 407l-71 -27l-16 45l130 51c86 -250 122 -327 129 -390h1l3 21c0 1 1 6 1 7c7 42 5 28 177 776z" />
    <glyph glyph-name="infinity" unicode="&#x221e;" horiz-adv-x="733" 
d="M367 305c84 84 133 105 185 105c82 0 142 -60 142 -146c0 -82 -68 -146 -151 -146c-55 0 -100 27 -177 106c-81 -83 -126 -106 -185 -106c-83 0 -141 61 -141 146c0 79 65 146 149 146c53 0 101 -25 178 -105zM187 175c40 0 79 22 142 89c-42 39 -81 90 -141 90
c-48 0 -89 -41 -89 -90s38 -89 88 -89zM404 265l40 -39c30 -30 64 -51 101 -51c49 0 89 41 89 89c0 52 -36 90 -87 90c-44 0 -85 -28 -143 -89z" />
    <glyph glyph-name="integral" unicode="&#x222b;" horiz-adv-x="317" 
d="M304 750l-12 -54c-9 4 -19 5 -28 5c-52 0 -75 -39 -75 -196c0 -100 7 -260 9 -356c2 -92 -6 -156 -16 -191c-22 -72 -62 -103 -119 -103c-20 0 -39 4 -50 9l11 54c11 -3 22 -5 34 -5c52 0 75 51 75 194c0 107 -10 297 -10 379c0 78 6 135 16 169c21 69 61 102 122 102
c16 0 32 -3 43 -7z" />
    <glyph glyph-name="approxequal" unicode="&#x2248;" horiz-adv-x="660" 
d="M549 394l37 -24c-28 -48 -83 -79 -139 -79c-26 0 -49 7 -123 29c-67 20 -87 25 -111 25c-29 0 -66 -12 -97 -59l-43 27c41 54 91 79 144 79c29 0 42 -4 131 -29c57 -16 78 -23 98 -23c38 0 79 20 103 54zM549 243l37 -24c-28 -48 -83 -79 -139 -79c-26 0 -49 7 -123 29
c-67 20 -87 25 -111 25c-29 0 -66 -12 -97 -59l-43 27c41 54 91 79 144 79c29 0 42 -4 131 -29c57 -16 78 -23 98 -23c38 0 79 20 103 54z" />
    <glyph glyph-name="notequal" unicode="&#x2260;" horiz-adv-x="660" 
d="M363 385l91 164l49 -28l-76 -136h165v-55h-195l-78 -139h273v-55h-303l-90 -161l-49 28l74 133h-157v55h188l77 139h-265v55h296z" />
    <glyph glyph-name="lessequal" unicode="&#x2264;" horiz-adv-x="660" 
d="M81 409l497 230v-62l-433 -199l433 -199v-62l-497 230v62zM81 55h497v-55h-497v55z" />
    <glyph glyph-name="greaterequal" unicode="&#x2265;" horiz-adv-x="549" 
d="M26 577v62l497 -230v-62l-497 -230v62l433 199zM26 55h497v-55h-497v55z" />
    <glyph glyph-name="lozenge" unicode="&#x25ca;" horiz-adv-x="494" 
d="M18 377l194 368h60l194 -368l-194 -377h-60zM406 377l-164 314l-164 -314l164 -323z" />
    </font>
</defs>
</svg>
